Kamikaze assaut dans le pacifique.FRENCH.avi URL Raccourcie






Réalisé par Taku Shinjo
Avec Toru Emori, Renji Ishibashi, Hiroshi Katsuno

japonais / Genre : Guerre / Durée : 2h9min. / Support : DVD et Blu-ray
Année de production : 2012



1944. La guerre du Pacifique touche à sa fin, la défaite du Japon se profile. L'État-Major japonais décide de former des pilotes dont la mission sera de se sacrifier en jetant leur avion rempli de bombes sur les navires américains. Les Kamikazes sont nés...

Bande annonce :



Langue : Français (truefrench)
Sous-titre : aucun
Taille totale : 971 mo



LIENS DE TÉLÉCHARGEMENT

Télécharger Kamikaze assaut dans le pacifique.FRENCH.avi URL Raccourcie gratuitement

Cliquez ici pour télécharger la version FRANCAISE



TÉLÉCHARGER Kamikaze assaut dans le pacifique.FRENCH.avi AVEC USENET (ANONYME&RAPIDE) 14 jours gratuits

↓↓↓ Kamikaze assaut dans le pacifique.FRENCH.avi ↓↓↓
 
Seeders 1 Leechers 0 Téléchargements 3273
 
Télécharger Dire merci! Signaler
Voir la liste des membres qui vous remercient
↑↑↑ Kamikaze assaut dans le pacifique.FRENCH.avi ↑↑↑

Informations

Nom Kamikaze assaut dans le pacifique.FRENCH.avi
Torrent Kamikaze assaut dans le pacifique.FRENCH.avi.avi.torrent
Catégorie Film
Taille totale 947.41 MB
Info Hash 38c1742db476333286eb5b3501e4a062cf93aba8
Uploadé par alphaecho
Uploadé le 2012-09-01 09:55:02 (+00:00)
Visites 4126
évaluation 4.8/5 (65 votes)

Liste des Fichiers

Path Size
Kamikaze assaut dans le pacifique.FRENCH.avi.avi 947.41 MB

Voir le NFO

General
Complete name                    :Kamikaze assaut dans le pacifique.FRENCH.avi.avi
Format                           : AVI
Format/Info                      : Audio Video Interleave
File size                        : 947 MiB
Duration                         : 2h 10mn
Overall bit rate                 : 1 019 Kbps
Writing application              : Lavf52.94.0

Video
ID                               : 0
Format                           : AVC
Format/Info                      : Advanced Video Codec
Format profile                   : [email protected]
Format settings, CABAC           : Yes
Format settings, ReFrames        : 2 frames
Format settings, GOP             : M=4, N=48
Codec ID                         : H264
Duration                         : 2h 10mn
Bit rate                         : 715 Kbps
Width                            : 1 024 pixels
Height                           : 576 pixels
Display aspect ratio             : 16:9
Frame rate mode                  : Variable
Frame rate                       : 25.000 fps
Color space                      : YUV
Chroma subsampling               : 4:2:0
Bit depth                        : 8 bits
Scan type                        : Progressive
Bits/(Pixel*Frame)               : 0.048
Stream size                      : 697 MiB (74%)
Writing library                  : x264 core 112 r1834 a51816a
Encoding settings                : cabac=1 / ref=1 / deblock=1:0:0 / analyse=0x1:0 / me=dia / subme=2 / psy=1 / psy_rd=0.00:0.00 / mixed_ref=0 / me_range=16 / chroma_me=1 / trellis=0 / 8x8dct=0 / cqm=0 / deadzone=21,11 / fast_pskip=1 / chroma_qp_offset=0 / threads=4 / sliced_threads=0 / nr=0 / decimate=1 / interlaced=0 / constrained_intra=0 / bframes=3 / b_pyramid=0 / b_adapt=1 / b_bias=0 / direct=3 / weightb=0 / open_gop=0 / weightp=2 / keyint=250 / keyint_min=25 / scenecut=40 / intra_refresh=0 / rc_lookahead=40 / rc=abr / mbtree=1 / bitrate=715 / ratetol=1.0 / qcomp=0.60 / qpmin=10 / qpmax=51 / qpstep=4 / ip_ratio=1.41 / aq=1:1.00

Audio
ID                               : 1
Format                           : MPEG Audio
Format version                   : Version 1
Format profile                   : Layer 3
Mode                             : Joint stereo
Mode extension                   : MS Stereo
Codec ID                         : 55
Codec ID/Hint                    : MP3
Duration                         : 2h 10mn
Bit rate mode                    : Constant
Bit rate                         : 256 Kbps
Channel(s)                       : 2 channels
Sampling rate                    : 48.0 KHz
Compression mode                 : Lossy
Stream size                      : 238 MiB (25%)
Alignment                        : Aligned on interleaves
Interleave, duration             : 24 ms (0.60 video frame)

Ajouter un commentaire

prudhomme85 Vivre pleinement ↑ 3.77 TB ↓ 489.89 GB Ratio: 7,87

Une réalité masquée sur le sacrifice humain ! Film profond qui ne remet pas en compte l'Histoire mais qui permet de réfléchir sur des facette gênante de la guerre en général.L'angoisse évidence des jeunes hommes est apparente et ne dois pas faire oublier qu'il ne sont pas des monstres ! Ce film n'aurai aucune chance il y a quelques années.Sons et images impeccables Merci pour ce partage !

Deboildieu ↑ 239.23 GB ↓ 142.03 GB Ratio: 1,68

La triste réalité de "monstres" qui n'hésite pas à former de jeunes hommes pour se sacrifier au nom d'un empereur véreux et qui se sait perdu. Beau, mais triste, malgré de belles actions. Merci et bravo

maffre ↑ 1.07 TB ↓ 62.52 GB Ratio: 17,48

Merci pour ce film. Bonnes et joyeuses fêtes de fin d'année

saintandre ↑ 1.14 TB ↓ 876.57 GB Ratio: 1,33

Je n'avais pas encore pris le temps de visionner ce superbe film, je pensais que c'était un documentaire de plus sur la guerre du Pacifique. En fait, c'est un film très émouvant qui montre les pilotes Kami-kaze comme des êtres humains qui ont pris la décision de quitter leurs familles, leurs amis, leurs fiancées, pour sauver leur patrie. On est très loin de l'image du robot froid aveuglé par l'endoctrinement qu'on a voulu nous faire avaler. Il est vrai que le trait est un peu forcé, que l'auteur joue à fond la carte du sentimentalisme, mais je n'avais jamais eu la chance de connaître l'histoire du côté de ceux qui vont mourir. Des gamins qu'on envoie à la mort, il y en a eu dans toutes les guerres, mais ceux-ci savaient qu'ils ne reviendraient pas. Quoi qu'il arrive, ils n'avaient pas assez de carburant. Bien sur, ils étaient de l'autre bord, l'autre bord de quoi ? Mais leur sacrifice et leur bravoure méritaient d'être salués. Ceci dit, l'image et le son sont impeccables, beau travail et encore merci.

chamajl

merci pour ce film

chamajl

Taotseu ↑ 4.05 TB ↓ 2.51 TB Ratio: 1,61

Quelle bonne nouvelle.
Lors de sa sortie DVD en Asie un ami me l'avait rippé avec des sous-titres français qu'il avait lui-même réalisé.
Je vais pouvoir m'assembler un DVD V.F.+ V.O. et sous-titres grâce à cette version !
Merci beaucoup.

Qui aime les roses en accepte les épines.

vincepeggy ↑ 200.36 GB ↓ 174.34 GB Ratio: 1,14

merci pour le film,apres plusieur semaine de recherche enfin il est la

alphaecho ↑ 7.81 TB ↓ 2.69 TB Ratio: 2,89

mais il n'y a pas de problème  

edengates ↑ 2.21 TB ↓ 2.21 TB Ratio: 0,99

punaise va apprendre a ecrire avant de critiquer. j'ai mal aux yeux a cause de ton orthographe

artemyss60 ↑ 265.63 GB ↓ 222.87 GB Ratio: 1,19

super film je le conseil

lebarbu29 ↑ 5.17 TB ↓ 2.44 TB Ratio: 2,11

merci pour ce bon film

alphaecho ↑ 7.81 TB ↓ 2.69 TB Ratio: 2,89

de rien il n'y a pas de quoi

Robert00007 ↑ 10.09 TB ↓ 6.21 TB Ratio: 1,62

Super bon film...  Image et son  #1

Peu de scène de combat mais nous y voyons tout l'aspect humain de ces hommes (car c'était des humains même s'ils étaient dans l'autre camp) qui ont tout donné dans l'espoir de la victoire. Un choix difficile à comprendre, oui et non, car il y a eu des sacrifices comme ça dans les 2 camps, peut-être pas sous la même forme mais quand même. Nos livres d'histoire en sont remplis de ces gens qui ont donné leur vie pour la victoire. Un aspect très intéressant sur ces kamikazes que je n'avais jamais vu dans un autre film.

Merci à l'uploader de m'avoir fait découvrir ce flm...

Dernière édition par Robert00007 le 2012-09-01 22:33:34

ferronlucas ↑ 19.42 TB ↓ 1.83 TB Ratio: 10,63

merci bon son et belle image

lfaucheur ↑ 2.1 TB ↓ 1.69 TB Ratio: 1,24

tres bon film comment ils ont ete inventer c est parti de la merci encore pour cette vrai histoire

bessie ↑ 4.49 TB ↓ 154.94 GB Ratio: 29,70

Merciiii pour le seedddddd.

NAOFR ↑ 726.15 GB ↓ 349.47 GB Ratio: 2,07

Belles images son ok  merci

mouches59 ↑ 264.21 GB ↓ 157.87 GB Ratio: 1,67

belles images et son ok  merci pour le partage

alphaecho ↑ 7.81 TB ↓ 2.69 TB Ratio: 2,89

de rien n'oubliez pas de voter après

valou53 ↑ 19.4 TB ↓ 1.4 TB Ratio: 13,87

merci pour le partage

 
Loading...