Alceste A Bicyclette 2013 FRENCH BRRip XviD-FUZION URL Raccourcie

))) Alceste � bicyclette (((





Titre original : Alceste � bicyclette
Genre : Com�die
Dur�e : 1 h 44 mn

Ann�e de production du film : 2011
Date de Sortie du DVD : 22 mai 2013
R�alis� par : Philippe Le Guay
Acteur(s) : Fabrice Luchini, Lambert Wilson, Maya Sansa, Laurie Bordesoules
Nationalit� : Fran�ais



G98Bp6aPAtY



Au sommet de sa carri�re d�acteur, Serge Tanneur a quitt� une fois pour toutes le monde du spectacle. Trop de col�re, trop de lassitude. La fatigue d�un m�tier o� tout le monde trahit tout le monde. D�sormais, Serge vit en ermite dans une maison d�labr�e sur l��le de R� Trois ans plus tard, Gauthier Valence, un acteur de t�l�vision adul� des foules, abonn� aux r�les de h�ros au grand c�ur, d�barque sur l��le. Il vient retrouver Serge pour lui proposer de jouer �Le Misanthrope� de Moli�re. Serge n�est-il pas devenu une pure incarnation du personnage d�Alceste ? Serge refuse tout net et confirme qu�il ne reviendra jamais sur sc�ne. Pourtant, quelque chose en lui ne demande qu�� c�der. Il propose � Gauthier de r�p�ter la grande sc�ne 1 de l�Acte 1, entre Philinte et Alceste. Au bout de cinq jours de r�p�tition, il saura s�il a envie de le faire ou non. Les r�p�titions commencent : les deux acteurs se mesurent et se d�fient tour � tour, partag�s entre le plaisir de jouer ensemble et l�envie brutale d�en d�coudre. La bienveillance de Gauthier est souvent mise � l��preuve par le ressentiment de Serge. Autour d�eux, il y a le microcosme de l��le de R�, fig�e dans la morte saison : un agent immobilier, la patronne de l�h�tel local, une italienne divorc�e venue vendre une maison. Et l�on peut se prendre � croire que Serge va r�ellement remonter sur les planches�




LIENS DE TÉLÉCHARGEMENT

Télécharger Alceste A Bicyclette 2013 FRENCH BRRip XviD-FUZION URL Raccourcie gratuitement

Cliquez ici pour télécharger la version FRANCAISE



TÉLÉCHARGER Alceste A Bicyclette 2013 FRENCH BRRip XviD-FUZION AVEC USENET (ANONYME&RAPIDE) 14 jours gratuits

↓↓↓ Alceste A Bicyclette 2013 FRENCH BRRip XviD-FUZION ↓↓↓
 
Seeders 36 Leechers 0 Téléchargements 14668
 
Télécharger Dire merci! Signaler
Voir la liste des membres qui vous remercient
↑↑↑ Alceste A Bicyclette 2013 FRENCH BRRip XviD-FUZION ↑↑↑

Informations

Nom Alceste A Bicyclette 2013 FRENCH BRRip XviD-FUZION
Torrent Alceste.A.Bicyclette.2013.FRENCH.BRRIP.XviD-FUZION.avi(1).torrent
Catégorie Film
Taille totale 703.64 MB
Info Hash d919b6ae9497443debcc47dfe6b25e8f2b03a52a
Uploadé par cenynou
Uploadé le 2013-05-21 22:00:01 (+00:00)
Visites 17822
évaluation 4.8/5 (117 votes)

Liste des Fichiers

Path Size
Alceste.A.Bicyclette.2013.FRENCH.BRRIP.XviD-FUZION.avi 703.64 MB

Voir le NFO

Complete name                            : Alceste.A.Bicyclette.2013.FRENCH.BRRIP.XviD-FUZION.avi
Format                                   : AVI
Format/Info                              : Audio Video Interleave
File size                                : 704 MiB
Duration                                 : 1h 45mn
Overall bit rate                         : 934 Kbps
Writing application                      : VirtualDubMod 1.5.10.2 Fr | www.trad-fr.com ||  (build 2540/release)
Writing library                          : VirtualDubMod build 2540/release

Video
ID                                       : 0
Format                                   : MPEG-4 Visual
Format profile                           : Advanced [email protected]
Format settings, BVOP                    : 2
Format settings, QPel                    : No
Format settings, GMC                     : No warppoints
Format settings, Matrix                  : Default (H.263)
Muxing mode                              : Packed bitstream
Codec ID                                 : XVID
Codec ID/Hint                            : XviD
Duration                                 : 1h 45mn
Bit rate                                 : 797 Kbps
Width                                    : 720 pixels
Height                                   : 384 pixels
Display aspect ratio                     : 1.85:1
Frame rate                               : 23.976 fps
Color space                              : YUV
Chroma subsampling                       : 4:2:0
Bit depth                                : 8 bits
Scan type                                : Progressive
Compression mode                         : Lossy
Bits/(Pixel*Frame)                       : 0.120
Stream size                              : 600 MiB (85%)
Writing library                          : XviD 1.2.1 (UTC 2008-12-04)

Audio
ID                                       : 1
Format                                   : MPEG Audio
Format version                           : Version 1
Format profile                           : Layer 3
Mode                                     : Joint stereo
Mode extension                           : MS Stereo
Codec ID                                 : 55
Codec ID/Hint                            : MP3
Duration                                 : 1h 45mn
Bit rate mode                            : Constant
Bit rate                                 : 128 Kbps
Channel(s)                               : 2 channels
Sampling rate                            : 48.0 KHz
Compression mode                         : Lossy
Stream size                              : 96.4 MiB (14%)
Alignment                                : Aligned on interleaves
Interleave, duration                     : 42 ms (1.00 video frame)
Interleave, preload duration             : 504 ms
Writing library                          : LAME3.98r
Encoding settings                        : -m j -V 4 -q 2 -lowpass 17 -b 128

Ajouter un commentaire

1 - 20 | 21 - 40 | 41 - 42
anastase45 ↑ 3.42 TB ↓ 452.88 GB Ratio: 7,73

Fabrice Luchini encore un régal!

crayolmax ↑ 141.52 GB ↓ 32.98 GB Ratio: 4,29

Merci pour le partage, qualité top!

alicejb ↑ 569.17 GB ↓ 166.6 GB Ratio: 3,41

Génial très bien pour le film. Et la qualité rien à redire. Merci.

fanshak ↑ 301.13 GB ↓ 307.76 GB Ratio: 0,97

Merci pour le film, très sympa.

2429 ↑ 318.21 GB ↓ 208.33 GB Ratio: 1,52

merci beaucoup

alfaprim ↑ 924.84 GB ↓ 303.85 GB Ratio: 3,04

Merci pour ce post à 700 Mo. C'est sympa de penser aux oubliés du haut débit.

polar ↑ 665.22 GB ↓ 349.36 GB Ratio: 1,90


J'ai essayé de lancer le téléchargement sur trois ordinateur différents, avec deux clients torrent différents. Cela ne marche pas même en Force Start.
Je suis utilisateur régulier de T411 et c'est la première fois que cela m'arrive. Je n'y connais rien mais je pense que ça vient du lien.

uranus ↑ 332.73 GB ↓ 91.89 GB Ratio: 3,62

il doit etre bien; je vais le telecharger. Merci

sophiebuell ↑ 139.55 GB ↓ 67.79 GB Ratio: 2,05

Merci pour ce film, le week-end s'agrémentera d'un bon film

Ju119 ↑ 304.79 GB ↓ 287.84 GB Ratio: 1,05

Un grand merci pour ce film
J'adore Wilson et Luchini : bonne soirée en perspective !

Doudman17 ↑ 317.8 GB ↓ 227.01 GB Ratio: 1,39

Excellente qualité, merci!

Luchini au top!

acotak927 ↑ 474.03 GB ↓ 462.47 GB Ratio: 1,02

luchini le meilleur tout simplement...

jcb89140 ↑ 1.68 TB ↓ 430.12 GB Ratio: 4,00

Merci pour ce très beau film... jeu d'acteur exceptionnel... Luccini... sublimissime de réalité... j'ai adoré..

Image 10/10
Son 10/10

minotaure121 ↑ 1.8 TB ↓ 669.31 GB Ratio: 2,75

Luchini le pédant génial!

unquidam L'anonymat du quidam ↑ 18.49 TB ↓ 1.63 TB Ratio: 11,37

Ahhhhh ce magnifique Fabrice Luchini.   On en redemande tout le temps.

Merci à la personne qui a pris de son temps pour nous uploader ce film.   Son et image parfaitement synchronisés.    

Myrtille44 ↑ 75.72 GB ↓ 39.72 GB Ratio: 1,90

Merci merci beaucoup pour tout

Lemoine84 ↑ 142.78 GB ↓ 90.97 GB Ratio: 1,56

un plaisir de romantisme qui nous remet les pieds sur terre; merci

ushoya ↑ 5.99 TB ↓ 1.38 TB Ratio: 4,34

merci tout cet excellent boulot

Fuenxid ↑ 1.16 TB ↓ 1.05 TB Ratio: 1,10

Merci beaucoup

bendurden

seed s'il vous plait

1 - 20 | 21 - 40 | 41 - 42
 
Loading...