A.Haunted.House.2013.TRUEFRENCH.DVDRIP.XVid.UTT URL Raccourcie

Ghost Bastards (Putain de fantôme)








Origine : U.S.A.
Réalisateur : Michael Tiddes
Acteurs : Marlon Wayans, Essence Atkins, Cedric The Entertainer, Nick Swardson, Marlene Forte
Genre : Comédie, Epouvante-horreur
Durée : 1h 26min
Année de production : 2013
Titre original : A Haunted House
Critiques Spectateurs : 2.7
Plus d'information sur allocine : http://www.allocine.fr/film/fichefilm_gen_cfilm=213654.html
Bande annonce : Ghost Bastards (Putain de fantôme) Bande-annonce VF



Malcom et Keisha viennent d’emménager dans la maison de leurs rêves. Mais leur bonheur est de courte durée car ils s’aperçoivent qu’un démon habite leur nouvelle demeure. Quand le démon possède sa femme, Malcom, déterminé à sauver sa vie sexuelle, fait appel à un prêtre, à un médium et à une équipe de ghost-busters pour l’aider.





Qualité : DVDRIP
Format : Mpeg-4
Langue : True French
Codec vidéo : XviD à 1011kbps
Codec audio : MP3 à 128kbps



Tailles des fichiers : 1 x 694 Mo
Nom de la release : A.Haunted.House.2013.TRUEFRENCH.DVDRIP.XVid.UTT
Taille totale : 694 Mo

Il s'agit bien de la VFF
Tout le mérite revient à la team UTT



LIENS DE TÉLÉCHARGEMENT

Télécharger A.Haunted.House.2013.TRUEFRENCH.DVDRIP.XVid.UTT URL Raccourcie gratuitement

Cliquez ici pour télécharger la version FRANCAISE



TÉLÉCHARGER A.Haunted.House.2013.TRUEFRENCH.DVDRIP.XVid.UTT AVEC USENET (ANONYME&RAPIDE) 14 jours gratuits

↓↓↓ A.Haunted.House.2013.TRUEFRENCH.DVDRIP.XVid.UTT ↓↓↓
 
Seeders 51 Leechers 0 Téléchargements 346
 
Télécharger Dire merci! Signaler
Voir la liste des membres qui vous remercient
↑↑↑ A.Haunted.House.2013.TRUEFRENCH.DVDRIP.XVid.UTT ↑↑↑

Informations

Nom A.Haunted.House.2013.TRUEFRENCH.DVDRIP.XVid.UTT
Torrent A.Haunted.House.2013.TRUEFRENCH.DVDRIP.XVid-UTT.avi.torrent
Catégorie Film
Taille totale 694.32 MB
Info Hash 9f8bdf3b3e91ff5a1eb56c95efe4a6d4654a358c
Uploadé par Anonymous
Uploadé le 2016-08-01 11:11:01 (+00:00)
Visites 449
évaluation 4.7/5 (24 votes)

Liste des Fichiers

Path Size
A.Haunted.House.2013.TRUEFRENCH.DVDRIP.XVid-UTT.avi 694.32 MB

Voir le NFO

 ■General

Complete name               : C:\Users\T'es trop curieux :)\Downloads\Torrent\A.Haunted.House.2013.TRUEFRENCH.DVDRIP.XVid-UTT.avi

Format                      : AVI

Format/Info                 : Audio Video Interleave

File size                   : 694 MiB

Duration                    : 1 h 24 min

Overall bit rate            : 1 148 kb/s

Writing library             : VirtualDub build 32817/release



Video

ID                          : 0

Format                      : MPEG-4 Visual

Format profile              : Simple@L3

Format settings, BVOP       : No

Format settings, QPel       : No

Format settings, GMC        : No warppoints

Format settings, Matrix     : Default (H.263)

Codec ID                    : XVID

Codec ID/Hint               : XviD

Duration                    : 1 h 24 min

Bit rate                    : 1 011 kb/s

Width                       : 624 pixels

Height                      : 336 pixels

Display aspect ratio        : 1.85:1

Frame rate                  : 25.000 FPS

Color space                 : YUV

Chroma subsampling          : 4:2:0

Bit depth                   : 8 bits

Scan type                   : Progressive

Compression mode            : Lossy

Bits/(Pixel*Frame)          : 0.193

Stream size                 : 611 MiB (88%)

Writing library             : XviD 1.1.2 (UTC 2006-11-01)



Audio

ID                          : 1

Format                      : MPEG Audio

Format version              : Version 1

Format profile              : Layer 3

Mode                        : Joint stereo

Mode extension              : MS Stereo

Codec ID                    : 55

Codec ID/Hint               : MP3

Duration                    : 1 h 24 min

Bit rate mode               : Constant

Bit rate                    : 128 kb/s

Channel(s)                  : 2 channels

Sampling rate               : 48.0 kHz

Compression mode            : Lossy

Stream size                 : 77.4 MiB (11%)

Alignment                   : Split accross interleaves

Interleave, duration        : 40  ms (1.00 video frame)

Interleave, preload duratio : 500  ms

Writing library             : LAME3.98



Ajouter un commentaire

jouvencelle

merci, son et images ça va mais le film .....

kasos11 ↑ 449.55 GB ↓ 402.41 GB Ratio: 1,11

film bien débile !! bon pour passer un bon moment après ce n'est pas un chef d’œuvre .

Ptiteaude88 ↑ 186.27 GB ↓ 144.77 GB Ratio: 1,28

Film à regarder complétement déchiré, sinon c'est... nul

Effectivement, latence durant 2 minutes, sinon son et image nickel

Aaron260smith

Bonjour, Oui latence de 47mn à 49mn30s, ca vient de la release qui est comme telle, je le répète c'est la seule qui existe en VFF

MCVampire Gentil sauf si tu fais chier ! ↑ 1.54 TB ↓ 790.03 GB Ratio: 1,99

Problème de vidéo/audio à la 47ème minute

genghiskhan91100 ↑ 550.24 GB ↓ 501.17 GB Ratio: 1,09

merci

 
Loading...