300 2006 720p BluRay DTS x264 URL Raccourcie


Last Stand of the 300





Réalisateur :David Padrusch
Acteurs :Jeffery A. Baker, Brian Danner, Orion Barnes, Erin Bennett
Genre :Documentaire, Histoire, War & Politics
Date de sortie :27 Mai 2007
Titre original :Last Stand of the 300
Plus d'information sur themoviedb :http://www.themoviedb.org/movie/37122






Qualité :Bluray 720p
Format :MKV
Langue :Anglais
Sous-titre : Français, Anglais
Codec vidéo :x264 à 720kbps
Codec audio :AAC à 1080kbps




Découpage :Aucun
Tailles des fichiers :4520 x 1 Mo
Nom de la release :300 2006 720p BluRay DTS x264
Taille totale :4520 Mo



LIENS DE TÉLÉCHARGEMENT

Télécharger 300 2006 720p BluRay DTS x264 URL Raccourcie gratuitement

Cliquez ici pour télécharger la version FRANCAISE
PUB



TÉLÉCHARGER 300 2006 720p BluRay DTS x264 AVEC USENET (ANONYME&RAPIDE) 14 jours gratuits

PUB

↓↓↓ 300 2006 720p BluRay DTS x264 ↓↓↓
 
Seeders 0 Leechers 0 Téléchargements 6
 
Télécharger Dire merci! Signaler
Voir la liste des membres qui vous remercient
↑↑↑ 300 2006 720p BluRay DTS x264 ↑↑↑

Informations

Nom 300 2006 720p BluRay DTS x264
Torrent 300 2006 720p BluRay DTS x264.torrent
Catégorie Film
Taille totale 4.41 GB
Info Hash 410e5f5905517134d76105e1bf0b15f382a7f73f
Uploadé par amessaad
Uploadé le 2013-08-06 09:46:53 (+00:00)
Visites 279
évaluation 5/5 (2 votes)

Liste des Fichiers

Path Size
300 2006 720p BluRay DTS x264-SilverTorrentHD/300 2006 720p BluRay DTS x264-SilverTorrentHD.mkv 4.37 GB
300 2006 720p BluRay DTS x264-SilverTorrentHD/Sample/Sample.mkv 36.52 MB
300 2006 720p BluRay DTS x264-SilverTorrentHD/Screenshots/Picture4.png 1.44 MB
300 2006 720p BluRay DTS x264-SilverTorrentHD/Screenshots/Picture6.png 1.27 MB
300 2006 720p BluRay DTS x264-SilverTorrentHD/Screenshots/Picture2.png 1.23 MB
300 2006 720p BluRay DTS x264-SilverTorrentHD/Screenshots/Picture1.png 1.08 MB
300 2006 720p BluRay DTS x264-SilverTorrentHD/Screenshots/Picture3.png 1.07 MB
300 2006 720p BluRay DTS x264-SilverTorrentHD/Screenshots/Picture5.png 1.02 MB
300 2006 720p BluRay DTS x264-SilverTorrentHD/Subtitles/English.srt 85.81 KB
300 2006 720p BluRay DTS x264-SilverTorrentHD/Subtitles/Francais.srt 77.22 KB
300 2006 720p BluRay DTS x264-SilverTorrentHD/Subtitles/English SDH.srt 68.81 KB
300 2006 720p BluRay DTS x264-SilverTorrentHD/Subtitles/Portuguese.srt 65.91 KB

Voir le NFO

General
Unique ID                                : 249851986804130516603053973120171760129 (0xBBF7BE07B487AB0D9312DD41344DDA01)
Complete name                            : C:\Users\adnen.messaadi\Downloads\300 2006 720p BluRay DTS x264-SilverTorrentHD\300 2006 720p BluRay DTS x264-SilverTorrentHD.mkv
Format                                   : Matroska
Format version                           : Version 2
File size                                : 4.37 GiB
Duration                                 : 1h 56mn
Overall bit rate                         : 5 361 Kbps
Encoded date                             : UTC 2013-06-25 05:59:21
Writing application                      : mkvmerge v6.2.0 ('Promised Land') built on Apr 28 2013 12:22:01
Writing library                          : libebml v1.3.0 + libmatroska v1.4.0

Video
ID                                       : 1
Format                                   : AVC
Format/Info                              : Advanced Video Codec
Format profile                           : [email protected]
Format settings, CABAC                   : Yes
Format settings, ReFrames                : 12 frames
Codec ID                                 : V_MPEG4/ISO/AVC
Duration                                 : 1h 56mn
Bit rate                                 : 4 610 Kbps
Width                                    : 1 280 pixels
Height                                   : 532 pixels
Display aspect ratio                     : 2.40:1
Frame rate mode                          : Constant
Frame rate                               : 23.976 fps
Color space                              : YUV
Chroma subsampling                       : 4:2:0
Bit depth                                : 8 bits
Scan type                                : Progressive
Bits/(Pixel*Frame)                       : 0.282
Stream size                              : 3.67 GiB (84%)
Writing library                          : x264 core 133 r2334 a3ac64b
Encoding settings                        : cabac=1 / ref=12 / deblock=1:-3:-3 / analyse=0x3:0x133 / me=umh / subme=10 / psy=1 / psy_rd=1.00:0.00 / mixed_ref=1 / me_range=32 / chroma_me=1 / trellis=2 / 8x8dct=1 / cqm=0 / deadzone=21,11 / fast_pskip=0 / chroma_qp_offset=-2 / threads=12 / lookahead_threads=1 / sliced_threads=0 / nr=0 / decimate=1 / interlaced=0 / bluray_compat=0 / constrained_intra=0 / bframes=6 / b_pyramid=2 / b_adapt=2 / b_bias=0 / direct=1 / weightb=1 / open_gop=0 / weightp=2 / keyint=240 / keyint_min=23 / scenecut=40 / intra_refresh=0 / rc_lookahead=60 / rc=2pass / mbtree=1 / bitrate=4610 / ratetol=1.0 / qcomp=0.60 / qpmin=0 / qpmax=69 / qpstep=4 / cplxblur=20.0 / qblur=0.5 / vbv_maxrate=50000 / vbv_bufsize=62500 / nal_hrd=none / ip_ratio=1.40 / aq=2:1.00
Default                                  : Yes
Forced                                   : No

Audio
ID                                       : 2
Format                                   : DTS
Format/Info                              : Digital Theater Systems
Mode                                     : 16
Format settings, Endianness              : Big
Codec ID                                 : A_DTS
Duration                                 : 1h 56mn
Bit rate mode                            : Constant
Bit rate                                 : 755 Kbps
Channel(s)                               : 6 channels
Channel positions                        : Front: L C R, Side: L R, LFE
Sampling rate                            : 48.0 KHz
Bit depth                                : 24 bits
Compression mode                         : Lossy
Stream size                              : 630 MiB (14%)
Title                                    : English DTS [email protected]
Language                                 : English
Default                                  : Yes
Forced                                   : No

Menu
00:00:00.000                             : en:Spartan Education
00:05:16.983                             : en:Messenger From Persia
00:10:23.289                             : en:Sparta's Reply
00:13:16.796                             : en:The Ephors
00:16:52.177                             : en:The Oracle
00:19:44.349                             : en:What Should a Free Man Do?
00:22:28.346                             : en:With or on Your Shield
00:27:03.622                             : en:More Soldiers Than You
00:29:16.254                             : en:Hunters of Men's Souls
00:33:17.829                             : en:Glorious Rain
00:35:06.771                             : en:Fraction of the Monster
00:37:49.433                             : en:Wall of the Dead
00:40:46.277                             : en:Ephialtes' Request
00:44:10.314                             : en:Hot Gates Battle
00:49:17.287                             : en:Today No Spartan Dies
00:52:46.329                             : en:Make Theron Your Ally
00:55:33.663                             : en:Meeting Xerxes
01:01:40.863                             : en:Immortals Put to the Test
01:05:20.750                             : en:Uber Immortal's Fall
01:08:42.952                             : en:Numbers Count for Nothing
01:12:43.192                             : en:Blood-Drunk
01:15:50.379                             : en:Betrayer's Bargain
01:18:38.380                             : en:Queen's Bargain
01:22:20.936                             : en:Prepare for Glory
01:26:43.531                             : en:Tell Them Our Story
01:29:11.512                             : en:Trickster in True Form
01:33:59.216                             : en:Victory in Surrender
01:38:54.595                             : en:Fallen Heroes
01:43:26.200                             : en:Go Tell the Spartans
01:49:03.537                             : en:End Credits
01:56:38.408                             : en:

General
Unique ID                                : 170362165474822781824761430215960346868 (0x802A8F41266C2BE8BB3784320590C0F4)
Complete name                            : C:\Users\adnen.messaadi\Downloads\300 2006 720p BluRay DTS x264-SilverTorrentHD\Sample\Sample.mkv
Format                                   : Matroska
Format version                           : Version 2
File size                                : 36.5 MiB
Duration                                 : 53s 932ms
Overall bit rate                         : 5 681 Kbps
Encoded date                             : UTC 2013-06-25 17:57:02
Writing application                      : mkvmerge v5.8.0 ('No Sleep / Pillow') built on Sep  2 2012 15:37:04
Writing library                          : libebml v1.2.3 + libmatroska v1.3.0

Video
ID                                       : 1
Format                                   : AVC
Format/Info                              : Advanced Video Codec
Format profile                           : [email protected]
Format settings, CABAC                   : Yes
Format settings, ReFrames                : 12 frames
Muxing mode                              : Header stripping
Codec ID                                 : V_MPEG4/ISO/AVC
Duration                                 : 53s 919ms
Bit rate                                 : 4 813 Kbps
Width                                    : 1 280 pixels
Height                                   : 532 pixels
Display aspect ratio                     : 2.40:1
Frame rate mode                          : Constant
Frame rate                               : 23.962 fps
Original frame rate                      : 23.976 fps
Color space                              : YUV
Chroma subsampling                       : 4:2:0
Bit depth                                : 8 bits
Scan type                                : Progressive
Bits/(Pixel*Frame)                       : 0.295
Stream size                              : 30.9 MiB (85%)
Default                                  : Yes
Forced                                   : No

Audio
ID                                       : 2
Format                                   : DTS
Format/Info                              : Digital Theater Systems
Mode                                     : 16
Format settings, Endianness              : Big
Muxing mode                              : Header stripping
Codec ID                                 : A_DTS
Duration                                 : 53s 932ms
Bit rate mode                            : Constant
Bit rate                                 : 755 Kbps
Channel(s)                               : 6 channels
Channel positions                        : Front: L C R, Side: L R, LFE
Sampling rate                            : 48.0 KHz
Bit depth                                : 24 bits
Compression mode                         : Lossy
Delay relative to video                  : 1ms
Stream size                              : 4.85 MiB (13%)
Title                                    : English DTS [email protected]
Language                                 : English
Default                                  : Yes
Forced                                   : No

Menu
00:00:00.000                             : en:Sparta's Reply

General
Complete name                            : C:\Users\adnen.messaadi\Downloads\300 2006 720p BluRay DTS x264-SilverTorrentHD\Screenshots\Picture1.png
Format                                   : PNG
Format/Info                              : Portable Network Graphic
File size                                : 1.08 MiB

Image
Format                                   : PNG
Format/Info                              : Portable Network Graphic
Width                                    : 1 280 pixels
Height                                   : 532 pixels
Bit depth                                : 24 bits
Compression mode                         : Lossless
Stream size                              : 1.08 MiB (100%)

General
Complete name                            : C:\Users\adnen.messaadi\Downloads\300 2006 720p BluRay DTS x264-SilverTorrentHD\Screenshots\Picture2.png
Format                                   : PNG
Format/Info                              : Portable Network Graphic
File size                                : 1.23 MiB

Image
Format                                   : PNG
Format/Info                              : Portable Network Graphic
Width                                    : 1 280 pixels
Height                                   : 532 pixels
Bit depth                                : 24 bits
Compression mode                         : Lossless
Stream size                              : 1.23 MiB (100%)

General
Complete name                            : C:\Users\adnen.messaadi\Downloads\300 2006 720p BluRay DTS x264-SilverTorrentHD\Screenshots\Picture3.png
Format                                   : PNG
Format/Info                              : Portable Network Graphic
File size                                : 1.07 MiB

Image
Format                                   : PNG
Format/Info                              : Portable Network Graphic
Width                                    : 1 280 pixels
Height                                   : 532 pixels
Bit depth                                : 24 bits
Compression mode                         : Lossless
Stream size                              : 1.07 MiB (100%)

General
Complete name                            : C:\Users\adnen.messaadi\Downloads\300 2006 720p BluRay DTS x264-SilverTorrentHD\Screenshots\Picture4.png
Format                                   : PNG
Format/Info                              : Portable Network Graphic
File size                                : 1.44 MiB

Image
Format                                   : PNG
Format/Info                              : Portable Network Graphic
Width                                    : 1 280 pixels
Height                                   : 532 pixels
Bit depth                                : 24 bits
Compression mode                         : Lossless
Stream size                              : 1.44 MiB (100%)

General
Complete name                            : C:\Users\adnen.messaadi\Downloads\300 2006 720p BluRay DTS x264-SilverTorrentHD\Screenshots\Picture5.png
Format                                   : PNG
Format/Info                              : Portable Network Graphic
File size                                : 1.02 MiB

Image
Format                                   : PNG
Format/Info                              : Portable Network Graphic
Width                                    : 1 280 pixels
Height                                   : 532 pixels
Bit depth                                : 24 bits
Compression mode                         : Lossless
Stream size                              : 1.02 MiB (100%)

General
Complete name                            : C:\Users\adnen.messaadi\Downloads\300 2006 720p BluRay DTS x264-SilverTorrentHD\Screenshots\Picture6.png
Format                                   : PNG
Format/Info                              : Portable Network Graphic
File size                                : 1.27 MiB

Image
Format                                   : PNG
Format/Info                              : Portable Network Graphic
Width                                    : 1 280 pixels
Height                                   : 532 pixels
Bit depth                                : 24 bits
Compression mode                         : Lossless
Stream size                              : 1.27 MiB (100%)

General
Complete name                            : C:\Users\adnen.messaadi\Downloads\300 2006 720p BluRay DTS x264-SilverTorrentHD\Subtitles\English SDH.srt
Format                                   : SubRip
File size                                : 68.8 KiB

Text
Format                                   : SubRip
Compression mode                         : Lossless

General
Complete name                            : C:\Users\adnen.messaadi\Downloads\300 2006 720p BluRay DTS x264-SilverTorrentHD\Subtitles\English.srt
Format                                   : SubRip
File size                                : 85.8 KiB

Text
Format                                   : SubRip
Compression mode                         : Lossless

General
Complete name                            : C:\Users\adnen.messaadi\Downloads\300 2006 720p BluRay DTS x264-SilverTorrentHD\Subtitles\Francais.srt
Format                                   : SubRip
File size                                : 77.2 KiB

Text
Format                                   : SubRip
Compression mode                         : Lossless

General
Complete name                            : C:\Users\adnen.messaadi\Downloads\300 2006 720p BluRay DTS x264-SilverTorrentHD\Subtitles\Portuguese.srt
Format                                   : SubRip
File size                                : 65.9 KiB

Text
Format                                   : SubRip
Compression mode                         : Lossless

Ajouter un commentaire

jessie365 ↑ 16.82 TB ↓ 254.86 GB Ratio: 67,59

Pas un rip BluRay. Merci de changer l'option bluray->HDRip.

https://forum.t411.ch/discussion/52348/statistiques-sur-les-torrents-de-t411.
https://wiki.t411.ch/doku.php/ripper-transformer/encoder_en_x264_avec_handbrake

 
Loading...